#TITLE:Mission to Tokyo;
#SUBTITLE:;
#ARTIST:Mako;
#TITLETRANSLIT:;
#SUBTITLETRANSLIT:;
#ARTISTTRANSLIT:;
#GENRE:;
#CREDIT:;
#BANNER:banner.png;
#BACKGROUND:;
#LYRICSPATH:;
#CDTITLE:cdtitle.png;
#MUSIC:mission.mp3;
#OFFSET:0.443;
#SAMPLESTART:58.540;
#SAMPLELENGTH:12.000;
#SELECTABLE:YES;
#DISPLAYBPM:160.000;
#BPMS:0.000=156.000;
#STOPS:;
#DELAYS:;
#TIMESIGNATURES:0.000=4=4
;
#BGCHANGES:0.750=flipped.avi=1.000=0=0=1=====,
99999=-nosongbg-=1.000=0=0=0 // don't automatically add -songbackground-
;
#KEYSOUNDS:;
#ATTACKS:;
// cache tags:
#FIRSTBEAT:9.000;
#LASTBEAT:363.000;
#SONGFILENAME:/Songs/ParaPara/Mission To Tokyo/mission.sm;
#HASMUSIC:1;
#HASBANNER:1;
#MUSICLENGTH:144.288;
// end cache tags

//---------------para-single - ----------------
#NOTES:
     para-single:
     :
     Beginner:
     5:
     0.270,0.314,0.263,0.340,0.107,186.000,38.000,49.000,0.000,0.000,0.000,0.000,-1.000,-1.000,0.270,0.314,0.263,0.340,0.107,186.000,38.000,49.000,0.000,0.000,0.000,0.000,-1.000,-1.000:
00000
00000
00000
00000
,
00000
00000
00000
00000
,
00000
00011
00000
11000
,
00000
00002
00003
20000
,
30000
00011
00000
11000
,
00000
00002
00003
20000
,
30000
00011
00000
11000
,
00000
00002
00003
20000
,
30000
00011
00000
11000
,
00000
00002
00003
20000
,
30000
10001
20002
00000
,
00000
00000
00000
00000
,
00000
30003
00001
00000
,
00000
00000
00000
00001
00010
00100
01000
00000
00000
00000
00000
00000
00010
00100
01000
20000
00000
00000
00000
00000
00000
00000
00000
00000
,
00002
00000
00000
00000
,
00000
00000
00000
00000
,
30003
00000
00001
00000
,
00000
00000
00000
00001
00010
00100
01000
00000
00000
00000
00000
00000
00000
00000
00000
00010
00000
00100
00000
01000
00000
10000
00000
00000
,
00000
00000
00000
01000
00000
00100
00000
00010
00000
00001
00000
00000
,
00000
00000
00000
00010
00000
00100
00000
01000
00000
10000
00000
00000
,
00000
00010
00000
00010
,
00000
01000
00000
01000
,
00000
00000
00000
01000
00000
00100
00000
00010
00000
00001
00000
00000
,
00000
00000
00000
00010
00000
00100
00000
01000
00000
10000
00000
00000
,
00000
00010
00000
00010
,
00000
01000
00000
01000
,
00000
00010
00000
01000
,
00000
01010
00000
00000
,
00000
01000
00000
00010
,
00000
01010
00000
00000
,
02000
00000
03000
00000
,
02000
00000
03000
00000
,
01000
00020
00030
00000
,
00020
00000
00030
00000
,
00010
00010
00000
01000
,
00000
01010
00000
00000
,
00000
01000
00000
00010
,
00000
01010
00000
00000
,
02000
00000
03000
00000
,
02000
00000
03000
00000
,
01000
00020
00030
00000
,
00020
00000
00030
01010
,
00000
00011
00000
11000
,
00000
00002
00003
20000
,
30000
00011
00000
11000
,
00000
00002
00003
20000
,
30000
00011
00000
11000
,
00000
00002
00003
20000
,
30000
00011
00000
11000
,
00000
00002
00003
20000
,
30000
10001
20002
00000
,
00000
00000
00000
00000
,
00000
30003
00001
00000
,
00000
00000
00000
00001
00010
00100
01000
00000
00000
00000
00000
00000
00010
00100
01000
20000
00000
00000
00000
00000
00000
00000
00000
00000
,
00002
00000
00000
00000
,
00000
00000
00000
00000
,
30003
00000
00001
00000
,
00000
00000
00000
00001
00010
00100
01000
00000
00000
00000
00000
00000
00010
00100
01000
10000
00000
00000
00000
00000
00000
00000
00000
00000
,
00000
00000
00000
01000
00000
00100
00000
00010
00000
00001
00000
00000
,
00000
00000
00000
00010
00000
00100
00000
01000
00000
10000
00000
00000
,
00000
00010
00000
00010
,
00000
01000
00000
01000
,
00000
00000
00000
00000
00000
00000
01000
00000
00000
00100
00000
00000
00000
00010
00000
00000
00000
00000
00001
00000
00000
00000
00000
00000
,
00000
00000
00000
00010
00000
00100
00000
01000
00000
10000
00000
00000
,
00000
00010
00000
00010
,
00000
01000
00000
01000
,
00000
00010
00000
01000
,
00000
01010
00000
00000
,
00000
01000
00000
00010
,
00000
01010
00000
00000
,
02000
00000
03000
00000
,
02000
00000
03000
00000
,
00000
00020
00030
00000
,
00020
00000
00030
00000
,
00010
00010
00000
01000
,
00000
01010
00000
00000
,
00000
01000
00000
00010
,
00000
01010
00000
00000
,
02000
00000
03000
00000
,
02000
00000
03000
00000
,
01000
00020
00030
00000
,
00020
00000
00030
01010
,
00000
00011
00000
11000
,
00000
00002
00003
20000
,
30000
00011
00000
11000
,
00000
00002
00003
20000
,
30000
00011
00000
11000
,
00000
00002
00003
20000
,
30000
00011
00000
11000
,
00000
00002
00003
20000
,
30000
20000
00000
30000
;
